symantec               psd               corel               apple               nero               cad               flash               steinberg               quark               adobe              

New Movies

  • »Jakkanna (2016) Telugu DesiSCR x264 AAC [ZippyMovieZ 2nd Anniversary Special]
  • »All Girls Weekend 2016 3D 1080p BluRay x264 VALUE[PRiME]
  • »Pele Birth Of A Legend 2016 BRRip XviD AC3 EVO
  • »Viral 2016 720p WEB DL DD5 1 x264 BDP[PRiME]
  • »Viral 2016 HDRip AC3 2 0 x264 BDP[PRiME]
  • »Warcraft 2016 720p HDRip AAC MAXPRO
  • »Laurel And Hardy Swiss Miss Comedy Eng Subs 1938 [H264 mp4]
  • »Shorts.720p.BluRay.x264 HAiDEAF [NORAR][PRiME]
  • »Warcraft 2016 1080p WEB DL H264 AC3 EVO
  • »Short Eyes 1977 720p BluRay x264 SADPANDA [NORAR][PRiME]
  • »Hardcore Henry 2016 720p BluRay x264 NeZu
  • »RV (2006) 720p BluRay x264 Eng Subs [Dual Audio] [Hindi 2.0 English 2.0] Exclusive By Dr.STAR
  • »Secretariat.2010.720p.BluRay.x264 METiS [NORAR][PRiME]
  • »Robinson Crusoe (2016) 1080p BluRay 6CH 1.7GB MkvCage
  • »Jurassic Park 1993 1080p BluRay AC3 x264 nelly45
  • »Shadow People 2013 720p BluRay x264 SONiDO [NORAR][PRiME]
  • »Shaft.1971.720p.BluRay.x264 KaKa[PRiME]
  • »Star Trek Beyond 2016 CAM 500MB GoenWae
  • »Only Lovers Left Alive Solo gli amanti sopravvivono (2013) bonus 10m DVDrip XviD Italian English Ac3 5 1 sub ita iCV MIRCrew
  • »The Protector 2 (2013) BDRip 720p X264 Multi Audio [Tamil Hindi Thai]
  • »Keanu 2016 720p BRRip 750 MB iExTV
  • »High.Strung.2016.DVDRip.XviD EVO
  • »Opera (1987) Dario Argento BRrip XviD Italian English Ac3 sub eng iCV MIRCrew
  • »Brotherhood of Death 1976 720p BluRay x264 SADPANDA[PRiME]
  • »Death Journey 1976 UNCUT 720p BluRay x264 SADPANDA[PRiME]
  • »Batman The Killing Joke 2016 720p BluRay x264 NeZu
  • »Everybody Wants Some 2016 720p BluRay DTS x264 RaNT[EtHD]
  • »Brotherhood of Death 1976 BDRip x264 VoMiT
  • »Spring (2014) BRrip XviD Italian English Ac3 5 1 sub Ita iCV MIRCrew
  • »Batman The Killing Joke (2016) 1080p BRRip 6CH 1.3GB MkvCage
  • »More
  • Download River.2016.720p.WEB DL.x264 [eSc] (Movies) For free





     Download River.2016.720p.WEB DL.x264 [eSc] (Movies)






    Download River.2016.720p.WEB DL.x264 [eSc]

    Video
    ID : 1
    Format : AVC
    Format/Info : Advanced Video Codec
    Format profile : [email protected]/* */
    Format settings, CABAC : Yes
    Format settings, ReFrames : 8 frames
    Codec ID : avc1
    Codec ID/Info : Advanced Video Coding
    Duration : 1h 26mn
    Bit rate : 1 100 Kbps
    Width : 1 280 pixels
    Height : 534 pixels
    Display aspect ratio : 2.40:1
    Frame rate mode : Variable
    Frame rate : 23.976 fps
    Minimum frame rate : 11.989 fps
    Maximum frame rate : 23.981 fps
    Color space : YUV
    Chroma subsampling : 4:2:0
    Bit depth : 8 bits
    Scan type : Progressive
    Bits/(Pixel*Frame) : 0.067
    Stream size : 682 MiB (89%)
    Writing library : x264 core 142 r2479 dd79a61
    Encoding settings : cabac=1 / ref=8 / deblock=1:0:0 / analyse=0x3:0x133 / me=umh / subme=9 / psy=1 / psy_rd=1.00:0.00 / mixed_ref=1 / me_range=16 / chroma_me=1 / trellis=2 / 8x8dct=1 / cqm=0 / deadzone=21,11 / fast_pskip=1 / chroma_qp_offset=-2 / threads=12 / lookahead_threads=1 / sliced_threads=0 / nr=0 / decimate=1 / interlaced=0 / bluray_compat=0 / constrained_intra=0 / bframes=3 / b_pyramid=2 / b_adapt=2 / b_bias=0 / direct=3 / weightb=1 / open_gop=0 / weightp=2 / keyint=240 / keyint_min=24 / scenecut=40 / intra_refresh=0 / rc_lookahead=60 / rc=2pass / mbtree=1 / bitrate=1100 / ratetol=1.0 / qcomp=0.60 / qpmin=0 / qpmax=69 / qpstep=4 / cplxblur=20.0 / qblur=0.5 / vbv_maxrate=62500 / vbv_bufsize=78125 / nal_hrd=none / filler=0 / ip_ratio=1.40 / aq=1:1.00
    Color range : Limited
    Color primaries : BT.709
    Transfer characteristics : BT.709
    Matrix coefficients : BT.709
    Menus : 4

    Audio
    ID : 2
    Format : AAC
    Format/Info : Advanced Audio Codec
    Format profile : LC
    Codec ID : 40
    Duration : 1h 26mn
    Bit rate mode : Variable
    Bit rate : 128 Kbps
    Channel(s) : 2 channels
    Channel positions : Front: L R
    Sampling rate : 48.0 KHz
    Frame rate : 46.875 fps (1024 spf)
    Compression mode : Lossy
    Stream size : 79.4 MiB (10%)
    Title : Stereo / Stereo
    Language : English
    Default : Yes
    Alternate group : 1
    Menus : 4

    Text
    ID : 3
    Format : Timed Text
    Muxing mode : sbtl
    Codec ID : tx3g
    Duration : 1h 22mn
    Bit rate mode : Variable
    Bit rate : 71 bps
    Stream size : 43.0 KiB (0%)
    Language : English
    Default : Yes
    Forced : No
    Alternate group : 3
    Menus : 4