symantec               psd               corel               apple               nero               cad               flash               steinberg               quark               adobe              

New Anime

  • »[AnimeRG] Naruto Shippuuden 446 [480p] [KaMi]
  • »[AnimeRG] Gintama (2015) 42 [480p] [KaMi]
  • »[AnimeRG] Assassination Classroom S2 03 [720p] [KaMi]
  • »[AnimeRG] Dragon Ball Super 028 [480p] [KaMi]
  • »[AnimeRG] Ajin Movie Part 1 Shoudou [720p] [KaMi]
  • »[AnimeRG] Monster 1 74 Complete (Dual Audio) [480p] [KaMi]
  • »[AnimeRG] Divine Gate 04 [720p] [kakashihatake2]
  • »[AnimeCreed] GATE 16 [720p][Lucifer22]
  • »[AnimeCreed] One Punch Man BD2 OVA The Pupil Who Is an Extremely Poor Talker [720p][Lucifer22]
  • »Fullmetal Alchemist Brotherhood Ep 01 64 Special (Complete) [English D ed] 480p x264 ARIZONE
  • »[AnimeCreed] Musaigen no Phantom World 04 [720p][Lucifer22]
  • »[AnimeRG] Gintama 307 [x265] [1080p] [OptimusPr1me]
  • »[AnimeRG] Tantei Team KZ Jiken Note 16 [x265] [1080p] [OptimusPr1me]
  • »[AnimeRG] Brynhildr in the Darkness BD (10 bit 264 1080p FLAC) [Dual Audio]
  • »Steven Universe S01e31 32 [Mux 720p H264 Ita Eng Aac] WEB DL
  • »[AnimeRG] Naruto Shippuuden 446 [x265] [1080p] [OptimusPr1me]
  • »Naruto Shippuden (Shippuuden) 446 English S ed 720p [AnimeCreed][Lucifer22]
  • »Naruto Shippuden (Shippuuden) 446 English S ed 480p [AnimeCreed][Lucifer22]
  • »[iORcHiD] Naruto Shippuden (Shippuuden) 446 [720p][Eng Sub].mkv
  • »[iORcHiD] Naruto Shippuden (Shippuuden) 446 [480p][Eng Sub].mkv
  • »[ShepardTDS] Final Fantasy VII Advent Children Directors Cut Dual Audio [720p 8 bit x265 HEVC]
  • »Tiger Bunny (Complete Series) [DUAL AUDIO] [1080p] [HEVC] [x265]
  • »One Piece E493 480p x264 mSD
  • »One Piece E488 480p x264 mSD
  • »One Piece E492 480p x264 mSD
  • »One Punch Man S01E12 480p x264 mSD
  • »One Piece E491 480p x264 mSD
  • »Akame ga Kill (Sub) 720p BluRay x264 SushiKushi
  • »Akame Ga Kill S01E17 D ED 480p x264 mSD
  • »One Piece E327 D ED 480p x264 mSD
  • »More
  • Download Quando cera Marnie Omoide no M n [BDrip 720p H264 Jap Dts SoftSub Ita Eng] (Anime) For free





     Download Quando cera Marnie Omoide no M n [BDrip 720p H264 Jap Dts SoftSub Ita Eng] (Anime)






    Quando c'era Marnie - Omoide no Mānī [BDrip 720p - H264 - Jap Dts - SoftSub Ita Eng](TNT Village)

    .: Release Originale :.


    .: Trama :.

    "In questo mondo esiste un invisibile cerchio magico"

    Anna è una ragazzina orfana di 12 anni timida e introversa che abita a Sapporo con la madre adottiva Yoriko con la quale ha un difficile rapporto.
    Dal momento che soffre d'asma, su consiglio del medico viene mandata per le vacanze estive presso Kiyomasa e Setsu Ōiwa, una coppia di parenti che abitano in un villaggio marittimo dell'Hokkaido orientale, dove Anna potrà respirare l'aria buona del mare.

    Nonostante la calorosa accoglienza dei due coniugi, Anna è ancora incapace di relazionarsi con i coetanei del luogo e preferisce passare le giornate girovagando solitaria nei dintorni del villaggio disegnando paesaggi.
    Una delle tante sue mete è una grande villa disabitata dall'altra parte della laguna.

    Ma un giorno ad Anna sembra quasi che le luci della casa si accendano e le pare di intravedere una ragazza bionda dietro una delle finestre...

    .: Locandina :.


    .: Scheda :.

    Titolo originale: Omoide no Mānī (思い出のマーニー)
    Anno: 19 luglio 2014 (Giappone) / 24-25-26 agosto 2015 (Italia)
    Genere: animazione
    Durata approssimativa: 1h43min
    Regia: Hiromasa Yonebayashi
    Tratto dal romanzo: “Where Marnie Was There” di Joan G. Robinson
    (Traduzione giapponese di Masako Matsuno, Pubblicato da Iwanami Shoten Publishers)
    Sceneggiatura scritta da: Keiko Niwa, Masashi Ando e Hiromasa Yonebayashi
    Musica: Takatsugu Muramatsu
    Canzone tema del film: “Fine On The Outside”
    Parole, musica e interpretazione di Priscilla Ahn
    Supervisione animazione: Masashi Ando
    Scenografie: Yohei Taneda
    Controllo animazione: Minoru Ohashi
    Colore: Yuki Kashima
    Regia immagini digitali: Atsushi Okui
    Sound Design: Koji Kasamatsu
    Produttore esecutivo: Toshio Suzuki
    Produttori associati: Seiji Okuda, Naoya Fujimaki e Ryoichi Fukuyama
    Produzione: Koji Hoshino/Studio Ghibli
    Produttore: Yoshiaki Nishimura

    .: Screenshot :.


    ========================================

    .: Dati tecnici del file :.


    General
    Unique ID : 223451983874201854260501641167258541889 (0xA81B49645BE38D49B7AEA713BF785F41)
    Complete name : Quando c'era Marnie - Omoide no Mānī - Sub Ita by MPT [BDrip 720p - H264 - Jap DTS - SoftSub Ita Eng](TNT Village).mkv
    Format : Matroska
    Format version : Version 4 / Version 2
    File size : 5.51 GiB
    Duration : 1h 42mn
    Overall bit rate : 7 687 Kbps
    Movie name : Quando c'era Marnie - Omoide no Mānī - Sub Ita by MPT
    Encoded date : UTC 2015-09-01 09:54:04
    Writing application : mkvmerge v7.9.0 ('Birds') 64bit
    Writing library : libebml v1.3.1 + libmatroska v1.4.2
    Attachements : 20th Century MT Bold.v2 / 20THCENT.TTF / Ald721BI.ttf / APJAPANESEFONT.TTF / ARIALNB.TTF / DFPGothUW5-Arrietty.ttf / FOT-MatisseMinoriProB-En.otf / LTe53507.ttf / LTe53508.ttf / popstarAutograph.otf / PPETRIAL.otf / PRISTINA.TTF / rabiohead.ttf / WorstveldSlingExtra2Oblique.ttf
    _STATISTICS_WRITING_APP : mkvmerge v7.9.0 ('Birds') 64bit
    _STATISTICS_WRITING_DATE_UT : 2015-09-01 09:54:04
    _STATISTICS_TAGS : BPS DURATION NUMBER_OF_FRAMES NUMBER_OF_BYTES
    DURATION : 01:42:26.270000000
    NUMBER_OF_FRAMES : 1196
    NUMBER_OF_BYTES : 68880

    Video
    ID : 1
    Format : AVC
    Format/Info : Advanced Video Codec
    Format profile : [email protected]
    Format settings, CABAC : Yes
    Format settings, ReFrames : 12 frames
    Codec ID : V_MPEG4/ISO/AVC
    Duration : 1h 42mn
    Bit rate : 6 154 Kbps
    Width : 1 280 pixels
    Height : 692 pixels
    Display aspect ratio : 1.85:1
    Frame rate mode : Constant
    Frame rate : 23.976 fps
    Color space : YUV
    Chroma subsampling : 4:2:0
    Bit depth : 8 bits
    Scan type : Progressive
    Bits/(Pixel*Frame) : 0.290
    Stream size : 4.32 GiB (78%)
    Title : Quando c'era Marnie - Omoide no Mānī
    Writing library : x264 core 146 r2538 121396c
    Encoding settings : cabac=1 / ref=12 / deblock=1:1:1 / analyse=0x3:0x133 / me=umh / subme=7 / psy=1 / psy_rd=0.60:0.00 / mixed_ref=1 / me_range=16 / chroma_me=1 / trellis=2 / 8x8dct=1 / cqm=0 / deadzone=21,11 / fast_pskip=1 / chroma_qp_offset=-2 / threads=18 / lookahead_threads=3 / sliced_threads=0 / nr=0 / decimate=1 / interlaced=0 / bluray_compat=0 / constrained_intra=0 / bframes=16 / b_pyramid=0 / b_adapt=1 / b_bias=0 / direct=3 / weightb=0 / open_gop=0 / weightp=2 / keyint=240 / keyint_min=23 / scenecut=40 / intra_refresh=0 / rc=2pass / mbtree=0 / bitrate=6154 / ratetol=1.0 / qcomp=0.60 / qpmin=10 / qpmax=51 / qpstep=4 / cplxblur=20.0 / qblur=0.5 / ip_ratio=1.40 / pb_ratio=1.30 / aq=0
    Language : Japanese
    Default : Yes
    Forced : No

    Audio
    ID : 2
    Format : DTS
    Format/Info : Digital Theater Systems
    Mode : 16
    Format settings, Endianness : Big
    Codec ID : A_DTS
    Duration : 1h 42mn
    Bit rate mode : Constant
    Bit rate : 1 509 Kbps
    Channel(s) : 5 channels
    Channel positions : Front: L C R, Side: L R
    Sampling rate : 48.0 KHz
    Bit depth : 24 bits
    Compression mode : Lossy
    Stream size : 1.08 GiB (20%)
    Title : Giapponese
    Language : Japanese
    Default : Yes
    Forced : No

    Text #1
    ID : 3
    Format : ASS
    Codec ID : S_TEXT/ASS
    Codec ID/Info : Advanced Sub Station Alpha
    Compression mode : Lossless
    Title : Italiano
    Language : Italian
    Default : Yes
    Forced : No

    Text #2
    ID : 4
    Format : ASS
    Codec ID : S_TEXT/ASS
    Codec ID/Info : Advanced Sub Station Alpha
    Compression mode : Lossless
    Title : Inglese
    Language : English
    Default : No
    Forced : No

    Menu
    00:00:00.000 : en:00:00:00.000
    00:08:44.190 : en:00:08:44.190
    00:18:58.471 : en:00:18:58.471
    00:28:24.161 : en:00:28:24.161
    00:34:31.027 : en:00:34:31.027
    00:42:21.497 : en:00:42:21.497
    00:50:59.181 : en:00:50:59.181
    00:57:21.021 : en:00:57:21.021
    01:06:36.743 : en:01:06:36.743
    01:14:01.187 : en:01:14:01.187
    01:23:59.576 : en:01:23:59.576
    01:36:36.457 : en:01:36:36.457